<?xml version="1.0" standalone="no"?>
<!DOCTYPE svg PUBLIC "-//W3C//DTD SVG 1.1//EN" "http://www.w3.org/Graphics/SVG/1.1/DTD/svg11.dtd" >
<svg xmlns="http://www.w3.org/2000/svg">
<metadata>Generated by IcoMoon</metadata>
<defs>
<font id="icomoon" horiz-adv-x="1024">
<font-face units-per-em="1024" ascent="960" descent="-64" />
<missing-glyph horiz-adv-x="1024" />
<glyph unicode="&#x20;" d="" />
<glyph unicode="&#x41;" glyph-name="instagram" d="M852 210v370h-78c8-24 12-50 12-76 0-48-12-92-36-132-26-40-58-72-100-96s-88-36-138-36c-74 0-138 26-192 78s-80 114-80 186c0 26 4 52 12 76h-82v-370c0-10 4-20 10-26 8-6 16-10 26-10h610c10 0 18 4 26 10 6 6 10 16 10 26zM690 514c0 46-18 88-52 120-36 34-76 50-126 50-48 0-90-16-124-50-34-32-52-74-52-120 0-48 18-88 52-122 34-32 76-50 124-50 50 0 90 18 126 50 34 34 52 74 52 122zM852 720v94c0 10-4 20-12 28s-16 12-28 12h-100c-10 0-20-4-28-12s-10-18-10-28v-94c0-12 2-20 10-28s18-12 28-12h100c12 0 20 4 28 12s12 16 12 28zM950 838v-652c0-32-10-58-32-80s-48-32-80-32h-652c-32 0-58 10-80 32s-32 48-32 80v652c0 32 10 58 32 80s48 32 80 32h652c32 0 58-10 80-32s32-48 32-80z" />
<glyph unicode="&#x42;" glyph-name="linkedin" d="M272 666v-566h-188v566zM284 842c0-28-8-52-28-70s-46-28-78-28v0c-32 0-58 10-76 28-20 18-28 42-28 70s8 52 28 70c20 18 46 28 78 28s56-10 76-28c18-18 28-42 28-70zM950 426v-326h-188v304c0 40-6 70-22 94-16 22-40 34-72 34-24 0-44-8-60-20-18-14-30-30-38-50-4-10-6-26-6-46v-316h-188c2 152 2 276 2 370s0 152 0 170l-2 26h188v-82c8 12 14 24 22 32 8 10 20 20 34 30 12 10 30 20 48 26 20 6 42 8 66 8 66 0 118-22 158-64 40-44 58-108 58-190z" />
<glyph unicode="&#x43;" glyph-name="envelope" d="M1000 854h-976c-14 0-24-10-24-24v-636c0-14 10-24 24-24h976c14 0 24 10 24 24v636c0 14-10 24-24 24zM48 774l374-262-374-262zM512 508l-424 298h850zM464 482l34-22c8-6 20-6 28 0l34 22 376-262h-848zM602 512l374 262v-524z" />
<glyph unicode="&#x44;" glyph-name="resources" d="M48 396h40c4 0 8-4 10-8 8-30 22-62 38-90 2-4 2-8-2-10l-28-30c-8-8-12-18-12-30 0-10 4-20 12-28l104-100c6-8 16-12 28-12 10 0 20 6 26 12l30 30c2 2 6 4 10 2 28-16 58-28 90-36 4-2 8-2 8-8v-42c0-12 4-22 12-28 8-8 18-12 28-12l144 2c12 0 22 4 30 12s12 20 12 30v44c0 2 4 6 8 8 30 8 60 22 90 38 2 2 6 2 8 0l30-30c8-8 18-12 28-12 12 0 22 6 28 12l100 104c8 8 14 18 14 28 0 12-6 22-14 30l-26 28c-2 2-2 6-2 8 16 30 28 62 36 94 2 2 4 6 8 6h42c10 0 20 4 28 12 6 8 10 18 8 30l-2 142c0 12-4 22-12 28-6 8-16 12-28 12h-40c-4 0-8 2-8 6-10 32-24 62-40 92-2 2-2 6 2 10l28 30c8 6 12 18 12 28 0 12-4 22-12 28l-102 102c-8 8-18 14-28 12-10 0-20-4-28-12l-30-30c-2-2-6-4-10-2-30 16-60 28-92 36-2 2-6 4-6 8v44c0 10-4 22-12 28-8 8-20 12-32 12l-142-2c-12 0-22-4-30-12s-12-18-12-30v-42c0-4-2-8-6-8-32-10-62-24-90-40-2-2-6-2-10 2l-28 28c-6 8-18 12-28 12s-20-4-28-12l-100-104c-8-8-12-18-12-28 0-12 4-22 12-30l30-28c2-4 4-6 2-10-16-30-28-60-36-92-2-4-2-8-8-8h-40c-12 0-22-4-30-12s-12-18-12-28l2-144c2-12 6-22 12-30 8-8 18-10 28-10zM38 580c0 2 0 4 2 6s4 2 6 2h42c18 2 32 14 38 32 8 28 18 58 32 84 10 16 8 36-6 48l-30 30c-2 2-2 4-2 6s0 4 2 6l100 104c4 2 8 2 10 0l30-30c14-12 34-14 50-6 26 16 54 28 84 36 16 6 28 22 28 40v42c0 4 4 8 8 8l142 2c4 0 6 0 6-2 2-2 4-4 4-6v-42c0-18 12-34 30-40 28-8 56-18 84-32 16-10 36-6 48 6l32 32c2 2 6 2 10 0l104-100c0-2 2-4 2-6s-2-4-2-6l-30-30c-12-14-14-34-6-50 16-26 28-54 36-82 6-18 22-30 40-30h42c2 0 4 0 4-2 2 0 2-2 2-4l2-144c0-2 0-4-2-6 0 0-2 0-4 0h-42c-18-2-32-14-38-32-8-28-20-58-34-84-8-16-6-36 8-50l30-28c0-2 2-4 2-6s-2-4-2-6l-100-104c-4-2-8-2-10 0l-30 30c-14 12-34 14-50 6-26-16-54-28-84-36-16-6-28-22-28-40v-44c0-2 0-4-2-6-2 0-4-2-6-2l-144-2c-2 0-4 0-6 2 0 2-2 4 0 4v44c0 18-14 34-32 38-28 8-58 20-84 34-6 4-14 4-20 4-10 0-22-4-28-12l-30-30c0 0-2 0-4 0-2-2-4 0-6 0l-102 100c-2 2-2 4-2 6s0 4 2 6l30 30c12 14 14 34 4 50-14 26-26 54-36 82-4 18-20 30-38 30h-42c-2 0-4 0-4 2-2 0-2 2-2 4zM412 204c66-22 138-20 204 2h2c48 18 92 46 128 82 62 62 94 146 92 232-2 88-36 170-98 232-64 60-148 92-234 90-88 0-170-36-230-98-62-62-94-146-92-234 2-86 36-168 98-230 36-36 80-62 130-76zM714 726c56-54 90-128 90-206 2-78-28-154-84-208-26-28-60-52-96-66l-4 286v6l-98 214c-2 6-8 10-14 10-8 0-14-4-16-10l-92-218v-6l4-288c-110 44-184 150-188 270 0 162 130 294 292 296 78 2 152-26 206-80zM474 630h66l44-96-12-8c-10-6-22-6-30 0l-24 16c0 2-2 2-2 4h-8c-2 0-2 0-4-2-2 0-2-2-4-4l-22-16c-10-6-22-6-30 0l-12 8zM490 662l16 44 18-42zM530 222l-4 276c10-6 20-8 32-8 10 0 22 4 30 10l4-268c-20-6-40-8-62-10zM432 498c18-12 42-12 62 0l4-278c-22 2-42 6-62 10z" />
<glyph unicode="&#x45;" glyph-name="play-circle" d="M512 950c80 0 154-18 220-58 68-40 120-92 160-160 40-66 58-140 58-220s-18-154-58-220c-40-68-92-120-160-160-66-40-140-58-220-58s-154 18-220 58c-68 40-120 92-160 160-40 66-58 140-58 220s18 154 58 220c40 68 92 120 160 160 66 40 140 58 220 58zM732 480c12 8 18 18 18 32s-6 24-18 32l-312 182c-12 8-24 8-36 0-12-6-18-18-18-32v-364c0-14 6-26 18-32 6-4 12-6 18-6s12 2 18 6z" />
<glyph unicode="&#x61;" glyph-name="bullet" d="M512 1004l492-492-492-492-492 492z" />
<glyph unicode="&#x62;" glyph-name="images" d="M798 866h-708c-36 0-64-28-66-62 0-2 0-2 0-2v-710c0-36 30-66 66-66h714c36 0 64 28 64 64 0 2 0 2 0 2v710c-2 36-34 64-70 64zM804 90h-714v712h714zM966 144c-16 0-30 14-30 32 0 0 0 0 8 2v724c0 18-14 32-34 32h-656c-18 0-32 12-34 30 0 0 0 0 0 2 0 18 16 32 34 32h646c56 0 100-44 100-100v-720c0-20-14-34-34-34zM172 152c-12 0-24 8-30 20s-4 26 6 36l138 162c10 14 30 16 44 6l136-102 218 276c12 14 32 16 46 4 16-10 18-32 6-46l-238-300c-12-14-32-16-46-6l-136 102-118-140c-6-6-16-10-26-12zM366 606c-28 0-50 22-50 50s22 50 50 50c28 0 50-22 50-50s-22-50-50-50z" />
<glyph unicode="&#x63;" glyph-name="doc2" d="M860 32h-488c-18 0-32 16-32 32 0 18 14 34 32 34h488c34 0 64 26 66 60v710c-2 34-32 60-66 60h-508c-32 0-58-26-58-58 0-2 0-2 0-2v-710c-4-72-62-126-134-126h-2c-34 0-66 14-88 36-24 24-38 56-38 90v448c0 18 14 34 32 34 20 0 34-16 34-34v-448c0-34 26-60 60-60h2c36 0 64 26 70 60v710c-2 68 52 124 120 124h510c70 2 128-54 132-124v-710c-4-70-62-126-132-126zM806 730h-398c-18 0-32 14-32 32s14 32 32 34h398c18-2 30-16 30-34 0-16-12-30-30-32zM806 578h-398c-18 0-32 14-32 32s14 32 32 32h398c18 0 30-16 30-32 0-18-12-32-30-32zM806 424h-398c-18 2-32 16-32 34 0 16 14 32 32 32h398c18-2 30-16 30-32 0-18-12-32-30-34zM806 272h-398c-18 0-32 14-32 32s14 32 32 34h398c18-2 30-16 30-34 0-16-12-30-30-32z" />
<glyph unicode="&#x64;" glyph-name="expand" d="M964 34h-932l-8 8c-10 10-10 22-12 32 0 8 0 18 0 32 0 24-2 58-2 104 0 76 0 180 0 312 2 222 4 448 4 450v30h390v-62h-328c-2-306-4-734-2-844h826v328h64zM934 634c18 0 32 14 32 30v308c0 8-4 16-10 22 0 0 0 0 0 0s0 0 0 0c-2 4-6 6-10 6-4 2-8 4-12 4h-308c-16 0-30-14-30-32 0-16 14-30 30-30h234l-626-626c-8-8-12-20-8-30 2-12 10-20 22-22 10-4 22 0 30 8l626 626v-234c0-16 14-30 30-30zM256 262c-12 0-24 8-30 20-4 12-2 26 8 34l624 624h-232c-18 0-32 16-32 32 0 18 14 32 32 32h308c4 0 8 0 12-2s8-4 10-8c0-2 0-8 0-14 10 0 18-8 18-18s-8-16-18-16c6-6 10-14 10-22v-310c0-10-6-22-16-28-10-4-22-4-32 0-10 6-16 18-16 28v282l-624-624c-6-6-14-10-22-10zM626 1002c-16 0-30-12-30-30 0-16 14-30 30-30h236l-628-626c-12-12-12-32 0-44 12-10 32-10 44 0l626 628v-236c0-10 6-22 16-26 8-6 20-6 30 0 10 4 14 16 14 26v308c0 4 0 8-2 12s-4 6-6 10c0 0 0 0 0 0v0c-4 2-6 4-10 6s-8 2-12 2z" />
<glyph unicode="&#x65;" glyph-name="link" d="M742 282c10-10 30-10 40 0l210 210c4 4 8 12 8 20 0 0 8 0 8 0s0 0 0 0c0 4 0 8-2 12-2 2-4 6-6 8l-218 210c-10 10-30 10-40 0-12-12-12-32 0-42l158-158h-846c-16 0-30-14-30-30s14-30 30-30h846l-158-158c-6-4-10-12-10-20s4-16 10-22z" />
<glyph unicode="&#x66;" glyph-name="search" d="M980 96l-256 256c136 166 112 412-54 550-166 136-412 112-548-54-138-166-114-412 54-548 144-120 354-120 498 2l256-258c6-6 16-10 26-10 8 0 18 4 24 10 14 14 14 38 0 52zM422 282c-180 0-324 144-324 322-2 178 142 324 322 324 178 0 322-144 324-322v0c0-180-144-324-322-324z" />
<glyph unicode="&#x67;" glyph-name="location" d="M512 1002c-200 0-360-162-360-360v0c0-156 220-470 316-598 10-14 26-22 44-22s34 8 44 22c98 130 316 442 316 598 2 198-160 360-360 360zM538 128c-6-8-16-12-26-12s-18 4-24 12c-168 232-270 426-270 514 0 162 132 294 294 294 164 0 296-132 296-294 0-88-104-282-270-514zM512 818c-84 0-154-70-154-154s70-154 154-154c86 0 154 70 154 154s-68 154-154 154zM512 576c-48 0-88 38-88 88 0 48 38 88 88 88 48 0 88-38 88-88v2c0-50-40-88-88-88z" />
<glyph unicode="&#x68;" glyph-name="account" d="M494 934c120 0 218-128 218-284s-98-282-218-282c-120 0-218 126-218 282s98 284 218 284M494 996c-156 0-280-154-280-346 0-190 124-346 280-346 154 0 280 156 280 346 0 192-126 346-280 346zM904 242l-212 78c-16 4-34-4-40-20s4-34 20-40l212-78c22-10 36-30 38-54v-22c0-18-14-22-32-22h-772c-16 0-32 4-32 22v22c2 24 18 46 38 54l192 78c16 6 24 22 20 40 0 0 0 0 0 0-6 16-24 26-42 20l-190-78c-48-20-78-64-80-114v-22c0-22 10-44 26-60s38-24 62-24c2 0 4 0 6 0h772c24-2 46 4 64 20 16 14 28 34 30 58 0 2 12 4 38 6v22c-2 50-34 96-80 114" />
<glyph unicode="&#x69;" glyph-name="image" d="M884 16h-744c-70 0-124 56-124 124v744c0 70 56 124 124 124h744c68 0 124-54 124-124v-744c0-68-54-124-124-124zM884 78c34 0 62 28 62 62v248l-186 186-264-264 228-232h160zM78 140c0-34 28-62 62-62h496l-312 312-246-220v-30zM946 884c0 34-28 62-62 62h-744c-34 0-62-28-62-62v-630l248 226 126-126 308 312 186-190v408zM264 636c-68 0-124 56-124 124 0 70 56 124 124 124s124-54 124-124v0c0-68-56-124-124-124v0zM264 822c-34 0-62-28-62-62s26-62 62-62c34 0 62 28 62 62v0c0 34-28 62-62 62z" />
<glyph unicode="&#x6a;" glyph-name="doc1" d="M864 8h-852v890h852zM78 74h722v758h-722zM1012 8h-44v962h-780v44h824z" />
<glyph unicode="&#x6b;" glyph-name="tag" d="M42 490c-16-16-16-42 0-58l366-364c6-8 16-14 26-16 12 0 22 2 30 10l452 450c16 16 28 46 26 68l-10 330c0 22-18 40-42 42l-328 10c-22 0-54-12-70-28l-450-450zM844 870c24-22 24-60 0-84-22-22-60-22-84 0-22 24-22 62 0 84 16 8 32 10 48 6 16-6 30-18 36-32z" />
<glyph unicode="&#x6c;" glyph-name="shock" d="M900 774c50 0 96 30 114 76 20 46 8 98-26 134-24 22-56 36-88 36-66 0-122-54-122-122 0-14 2-28 8-42l-48-50c-18 14-42 14-56 0l-98-100 2-2-102 68c-34 24-82 20-110-8-32-32-32-88 0-120l42-42 54 56-36 40c-2 2-2 4 0 6 0 0 4 0 4 0l330-216c34-24 80-20 110 10 34 34 34 88 0 122l-38 38-56-56 38-36c2-2 2-6 0-10 0 0-6 0-10 0l-86 56 74 74c14 14 16 38 2 54l46 46c18-8 34-12 52-12zM900 938c14 0 22-4 32-12 8-8 12-18 12-30 0-24-18-42-42-42-22 0-42 20-42 42-2 24 20 42 40 42zM120 350c-14-14-20-36-18-56l22-44c-32 0-64-12-88-36-22-24-36-54-36-88 0-32 14-64 36-86 36-34 88-46 134-26 46 18 76 64 76 112l46-18c18-6 38 2 50 16l6 6-228 226zM156 154c10-8 14-18 14-30-2-20-22-42-46-42-22 0-42 20-42 42 0 12 6 22 14 30 8 10 18 14 30 14s22-4 30-14zM336 456l-68-70-28 26c-16 18-40 18-54 0l-24-22 228-228 24 24c16 16 16 40 0 54l-28 28 86 86zM674 492l-56-56 38-38c2 0 2-4 0-8 0 0-6 0-10 0l-86 56 76 78-134 102-86-88-100 68c-34 24-80 18-108-10-32-32-32-86 0-120l40-40 56 56-42 40c0 2 0 4 0 6 2 0 6 0 6 0l330-216c34-24 80-20 110 10 34 34 34 88 0 122z" />
<glyph unicode="&#x6d;" glyph-name="tools" d="M928 336c-50 48-118 60-178 38-4-2-8 0-12 2l-362 362c-4 4-4 8-2 12 22 62 10 130-40 178-42 42-106 58-164 42-10-2-12-14-6-20l56-60c28-24 28-64 0-88-24-24-64-24-90 0l-56 58c-8 6-18 2-20-6-16-60 0-122 42-166 50-48 118-60 178-40 4 2 8 2 12-2l360-360c4-4 4-8 2-12-22-60-8-130 40-176 46-46 108-60 166-44 10 2 12 14 6 20l-58 58c-26 26-26 66 0 90 24 26 64 26 90 0l58-56c6-8 18-4 20 4 16 56 2 120-42 166zM374 486c-8 6-18 6-24 0l-272-272c-36-36-40-98-4-136 36-40 98-42 136-4l276 276c6 6 6 18 0 24zM608 578c6-6 18-6 24 0l236 236c2 2 4 2 6 4l48 24c2 2 6 4 8 8l42 64c6 6 4 18-2 26l-28 28c-8 6-18 8-26 2l-66-42c-2-2-6-4-6-8l-26-48c0 0-2-4-4-4l-234-236c-8-8-8-18 0-24z" />
<glyph unicode="&#x6e;" glyph-name="chev-right" d="M254 42c26-24 68-24 92 0l424 424c24 26 24 66 0 92l-424 424c-16 16-40 22-62 16-24-6-42-22-48-46-6-22 2-46 18-64l378-376-378-376c-24-26-24-68 0-94z" />
<glyph unicode="&#x6f;" glyph-name="chev-left" d="M770 982c-26 24-68 24-92 0l-424-424c-24-26-24-66 0-92l424-424c24-24 66-24 90 2 26 24 26 66 2 92l-378 376 378 376c24 26 24 68 0 94z" />
<glyph unicode="&#x70;" glyph-name="chev-up" d="M982 254c24 26 24 68 0 92l-424 424c-26 24-66 24-92 0l-424-424c-16-16-22-40-16-62 6-24 22-42 46-48 22-6 46 2 64 18l376 378 376-378c26-24 68-24 94 0z" />
<glyph unicode="&#x71;" glyph-name="chev-down" d="M42 770c-24-26-24-68 0-92l424-424c26-24 66-24 92 0l424 424c24 24 24 66-2 90-24 26-66 26-92 2l-376-378-376 378c-26 24-68 24-94 0z" />
<glyph unicode="&#x72;" glyph-name="google-plus" d="M538 186c0 8-2 16-4 24s-2 14-4 20c-2 6-6 14-10 20-6 8-10 12-12 18-4 4-10 10-16 16-6 8-12 12-16 16-4 2-10 8-18 14s-14 10-18 12c-2 4-10 8-18 14-10 6-16 10-18 12-6 0-16 2-28 2-22 0-42-2-62-4-18-4-40-8-60-16-22-6-40-14-56-26-16-10-30-24-40-42s-16-38-16-62c0-26 8-48 20-68 14-22 32-38 54-48 22-12 44-22 68-26 24-6 48-10 74-10 22 0 44 2 64 8 20 4 38 12 56 22s32 24 44 42c10 18 16 38 16 62zM468 680c0 22-2 46-8 72-8 26-16 50-28 74s-28 44-48 60c-20 16-42 24-68 24-36 0-62-14-82-40s-30-58-30-94c0-18 2-36 8-56 4-20 10-40 20-60 8-20 20-38 32-54s26-28 44-38c18-10 36-14 56-14 36 0 64 10 80 34 16 22 24 54 24 92zM394 950h250l-78-44h-76c26-18 48-42 62-72 14-32 22-64 22-96 0-30-4-54-12-76-10-22-20-40-32-52-14-14-26-26-38-38-14-10-24-22-32-34-10-12-14-26-14-40 0-10 4-18 10-28s14-18 24-28c10-8 22-18 34-28 12-8 24-20 36-30 12-12 24-26 34-38 10-14 18-30 24-50 6-18 10-38 10-60 0-60-26-114-80-162-58-50-138-74-240-74-22 0-46 2-68 6-24 4-46 10-70 18-24 10-44 20-62 34s-32 30-44 50c-12 22-18 44-18 70 0 24 8 50 22 78 12 24 30 44 54 62s52 32 84 42c30 8 60 16 88 20s56 6 86 8c-24 32-36 60-36 84 0 6 0 10 0 14 2 4 2 8 4 12 0 2 2 6 4 12 2 4 2 8 4 12-16-2-28-4-40-4-58 0-106 20-146 56-40 38-62 86-62 142 0 52 18 100 56 142 36 42 80 70 132 82 36 8 72 10 108 10zM988 804v-72h-146v-146h-74v146h-146v72h146v146h74v-146z" />
<glyph unicode="&#x73;" glyph-name="facebook" d="M584 706h148l-18-162h-130v-470h-194v470h-98v162h98v98c0 70 16 122 48 158 34 36 88 52 162 52h130v-162h-80c-16 0-28 0-36-4-10-2-16-6-20-12-4-8-6-14-8-20 0-6-2-16-2-28z" />
<glyph unicode="&#x74;" glyph-name="twitter" d="M962 790c-26-36-56-68-92-94 0-6 0-14 0-24 0-50-6-100-22-148-14-50-36-98-66-142-28-46-64-86-104-122-42-34-90-62-148-82-58-22-120-32-184-32-104 0-198 28-284 84 14-2 28-4 44-4 86 0 162 28 230 80-40 0-76 12-108 36s-54 54-66 92c14-2 26-4 36-4 16 0 32 2 48 8-42 8-78 30-106 62-28 34-42 74-42 118v2c26-14 54-22 84-22-26 16-46 38-60 64-16 28-22 58-22 88 0 34 8 66 24 94 46-56 102-102 168-136s138-54 214-58c-4 16-6 30-6 44 0 50 18 94 54 130s80 54 132 54c52 0 98-20 134-58 42 8 80 22 118 44-14-44-42-78-82-102 36 4 70 14 106 28z" />
<glyph unicode="&#x75;" glyph-name="close" d="M52 932l50 48 888-888-50-48zM52 94l888 888 50-50-888-888z" />
<glyph unicode="&#x76;" glyph-name="geo" d="M512 998c-266 0-482-218-482-484s216-482 482-482c266 0 482 216 482 482s-216 484-482 484zM550 112v130h-76v-130c-194 18-346 172-364 364h130v78h-130c18 192 170 344 364 364v-132h76v132c194-20 346-172 364-364h-130v-78h130c-18-192-170-346-364-364z" />
<glyph unicode="&#x77;" glyph-name="route" d="M966 990l-930-426c-12-6-18-22-12-36 4-8 10-12 18-14l412-70 48-388c0-12 10-20 20-22 2 0 4 0 6 0 8 0 18 6 22 14l450 906c6 14 2 28-12 36-6 2-16 2-22 0zM542 148l-38 322c-2 12-10 20-22 22l-348 60 786 360z" />
<glyph unicode="&#x78;" glyph-name="check" d="M912 830l-552-530-246 200c-20 18-54 14-72-6-16-22-14-56 8-72l280-230c18-16 50-14 66 2l586 562c16 14 22 38 12 58-22 38-52 36-82 16z" />
<glyph unicode="&#x79;" glyph-name="filter" d="M222 852v76c0 20-16 34-34 34-20 0-36-14-36-34v-76c-66-18-116-78-116-150s50-134 116-150v-476c0-20 16-36 36-36 18 0 34 16 34 36v474c68 14 124 76 124 152 0 74-56 136-124 150zM190 616c-46 0-84 38-84 86 0 46 38 86 84 86 48 0 86-40 86-86 0-48-38-86-86-86zM870 852v76c0 20-16 34-36 34-18 0-34-14-34-34v-76c-68-18-116-80-116-150 0-72 48-134 116-150v-476c0-20 16-36 34-36 20 0 36 16 36 36v474c66 14 122 76 122 152 0 74-56 136-122 150zM838 616c-48 0-86 38-86 86 0 46 38 86 86 86 46 0 86-40 86-86 0-48-40-86-86-86zM552 452v476c0 20-14 34-34 34-18 0-34-14-34-34v-476c-72-14-124-78-124-150 0-74 52-136 124-152v-74c0-20 16-36 34-36 20 0 34 16 34 36v76c70 16 118 78 118 150 0 70-48 132-118 150zM514 216c-46 0-84 38-84 86 0 46 38 86 84 86 48 0 86-40 86-86 0-48-38-86-86-86z" />
<glyph unicode="&#x7a;" glyph-name="youtube" d="M628 314v-122c0-24-8-38-22-38-10 0-18 4-26 12v172c8 10 16 14 26 14 14 0 22-14 22-38zM822 312v-26h-52v26c0 26 8 40 26 40 16 0 26-14 26-40zM270 438h60v52h-178v-52h60v-326h58zM434 112h50v282h-50v-216c-12-16-22-24-32-24-8 0-12 4-12 12-2 2-2 8-2 20v208h-50v-224c0-18 2-32 4-40 4-14 16-22 34-22s38 12 58 34zM678 196v114c0 26 0 46-4 56-6 22-20 32-40 32s-38-10-54-32v124h-50v-378h50v28c18-22 34-32 54-32s34 10 40 32c4 10 4 28 4 56zM872 202v8h-52c0-20 0-32-2-36-2-12-10-20-22-20-18 0-26 14-26 40v50h102v58c0 30-6 52-16 66-14 20-34 30-60 30s-46-10-62-30c-10-14-16-36-16-66v-98c0-30 6-52 18-66 14-20 34-30 62-30 26 0 48 10 60 30 8 10 12 20 12 32 2 2 2 14 2 32zM524 724v120c0 26-8 40-24 40s-24-14-24-40v-120c0-26 8-40 24-40s24 14 24 40zM936 294c0-88-6-154-16-200-4-22-16-40-32-56-18-14-36-24-58-26-70-8-176-12-318-12s-248 4-318 12c-22 2-40 12-58 26-16 16-28 34-32 56-10 44-16 110-16 200s6 156 16 200c4 24 16 42 32 58 18 14 36 24 60 26 70 8 174 12 316 12s248-4 318-12c22-2 40-12 58-26 16-16 28-34 32-58 10-42 16-108 16-200zM366 1024h58l-70-228v-154h-56v154c-6 28-18 68-36 122-14 38-26 74-36 106h60l40-150zM576 834v-100c0-32-4-54-16-68-14-20-34-28-60-28s-46 8-60 28c-10 14-16 38-16 68v100c0 30 6 52 16 66 14 20 34 30 60 30s46-10 60-30c12-14 16-36 16-66zM768 926v-284h-52v30c-20-24-40-34-58-34s-30 6-34 20c-4 10-6 24-6 44v224h52v-210c0-12 2-18 2-20 0-8 4-12 12-12 10 0 20 8 32 24v218z" />
</font>
</defs>
</svg>
